<?xml version="1.0" standalone="no"?>
<!DOCTYPE svg PUBLIC "-//W3C//DTD SVG 1.1//EN" "http://www.w3.org/Graphics/SVG/1.1/DTD/svg11.dtd" >
<svg xmlns="http://www.w3.org/2000/svg">
<metadata>Generated by IcoMoon</metadata>
<defs>
<font id="icomoon" horiz-adv-x="1024">
<font-face units-per-em="1024" ascent="960" descent="-64" />
<missing-glyph horiz-adv-x="1024" />
<glyph unicode="&#x20;" horiz-adv-x="512" d="" />
<glyph unicode="&#xe900;" glyph-name="phone-call" d="M985.114 158.88l-200.646 200.644c-23.952 23.95-62.916 23.95-86.87 0l-52.176-52.176c-16.348-16.348-21.516-39.69-15.546-60.482l-19.686-19.686c-0.006-0.006-0.010-0.010-0.016-0.016-13.98-13.996-101.046 7.482-206.29 112.726-105.228 105.226-126.712 192.278-112.732 206.284 0 0.004 0.004 0.004 0.004 0.004l19.704 19.702c5.562-1.598 11.302-2.414 17.046-2.414 15.73 0 31.458 5.986 43.436 17.96l52.176 52.176c23.95 23.95 23.95 62.916 0 86.868l-200.646 200.648c-11.6 11.6-27.026 17.988-43.432 17.988-16.41 0-31.83-6.392-43.432-17.988l-52.18-52.18c-16.348-16.348-21.516-39.692-15.546-60.482 0 0-16.688-16.848-17.518-17.912-55.506-61.698-65.92-158.836-29.122-274.974 36.034-113.714 113.714-234.176 218.734-339.19 105.016-105.016 225.478-182.696 339.192-218.734 45.68-14.474 88.414-21.646 127.22-21.646 63.626 0 116.674 19.296 154.7 57.32l10.948 10.948c5.48-1.576 11.204-2.426 17.064-2.426 16.41 0 31.834 6.392 43.432 17.988l52.18 52.18c23.95 23.95 23.95 62.918 0.002 86.87zM179.44 877.686l200.648-200.65-52.148-52.204c0 0-0.010 0.010-0.028 0.028l-200.65 200.646 52.178 52.18zM818.058 36.754c-0.004-0.004-0.006-0.006-0.010-0.010-44.188-44.182-122.292-51.48-219.922-20.54-104.504 33.116-216.13 105.428-314.312 203.612-98.186 98.184-170.498 209.806-203.612 314.312-30.94 97.634-23.642 175.74 20.55 219.934l5.544 5.544 155.714-155.712-14.282-14.282c-0.010-0.010-0.018-0.022-0.030-0.034-59.17-59.244 11.926-192.294 112.756-293.124 75.468-75.468 168.986-134.28 236.102-134.28 22.568 0 42.152 6.65 57.056 21.556 0.006 0.006 0.010 0.010 0.016 0.016l14.266 14.266 155.714-155.712-5.55-5.546zM889.504 63.264l-200.648 200.648 52.176 52.176 200.648-200.644c0 0-52.158-52.198-52.176-52.18zM777.636 713.632c-58.418 58.418-136.084 90.588-218.688 90.586-16.962 0-30.712-13.75-30.712-30.712s13.752-30.712 30.712-30.712c66.2 0.004 128.438-25.78 175.256-72.594 46.812-46.812 72.59-109.050 72.588-175.248 0-16.962 13.75-30.716 30.712-30.716 16.96 0 30.712 13.75 30.712 30.708 0.002 82.608-32.17 160.27-90.58 218.688zM887.79 823.786c-87.846 87.842-204.634 136.218-328.854 136.214-16.962 0-30.712-13.752-30.712-30.712 0-16.962 13.752-30.712 30.712-30.712 107.814 0.004 209.176-41.984 285.418-118.222 76.236-76.236 118.222-177.598 118.22-285.412 0-16.962 13.75-30.712 30.712-30.712 16.96 0 30.712 13.75 30.712 30.708 0.004 124.224-48.372 241.008-136.208 328.848zM667.474 603.48c-29.412 29.412-66.93 44.954-108.512 44.954 0 0-0.010 0-0.012 0-16.962-0.004-30.712-13.752-30.708-30.716 0.004-16.962 13.756-30.712 30.716-30.708 0.004 0 0.006 0 0.010 0 25.288 0 47.186-9.072 65.078-26.962 17.638-17.64 26.962-40.15 26.958-65.088-0.004-16.962 13.75-30.712 30.708-30.716h0.004c16.962 0 30.708 13.75 30.712 30.708 0.002 41.584-15.54 79.112-44.954 108.528z" />
<glyph unicode="&#xe901;" glyph-name="message" d="M1023.218 564.798c-0.002 1.54-0.346 3.866-0.944 5.206-1.574 5.708-5.072 10.922-10.308 14.562l-146.584 101.896v109.232c0 14.48-11.744 26.224-26.224 26.224h-168.638l-143.486 99.756c-8.968 6.242-20.874 6.268-29.87 0.052l-144.412-99.808h-167.9c-14.484 0-26.224-11.744-26.224-26.224v-107.946l-147.296-101.802c-7.246-5.008-11.166-13.014-11.29-21.2-0.008-0.154-0.042-0.3-0.042-0.46l0.782-568.47c0.010-6.954 2.782-13.62 7.704-18.532 4.916-4.902 11.576-7.654 18.52-7.654 0.014 0 0.024 0 0.036 0l970.77 1.334c14.48 0.020 26.208 11.778 26.188 26.26l-0.782 567.574zM865.38 622.584l83.796-58.236-83.796-58.256v116.492zM512.030 868.232l66.62-46.312h-133.624l67.004 46.312zM211.076 769.47h601.856v-299.842l-202.072-140.484-82.388 63.908c-0.128 0.1-0.238 0.162-0.362 0.252-9.208 6.908-22.232 7.162-31.788-0.252l-82.986-64.37-202.26 139.786v301.002zM158.628 623.994v-119.28l-86.292 59.638 86.292 59.642zM52.516 514.266l317.338-219.31-316.698-245.648-0.64 464.958zM103.75 22.182l408.648 316.968 407.182-315.846-815.83-1.122zM654.288 295.458l316.552 220.072 0.64-466.118-317.192 246.046zM689.54 664.574h-355.072c-14.48 0-26.224-11.744-26.224-26.224s11.744-26.224 26.224-26.224h355.072c14.484 0 26.224 11.744 26.224 26.224s-11.74 26.224-26.224 26.224zM689.54 528.21h-355.072c-14.48 0-26.224-11.744-26.224-26.224s11.744-26.224 26.224-26.224h355.072c14.484 0 26.224 11.744 26.224 26.224s-11.74 26.224-26.224 26.224z" />
<glyph unicode="&#xe902;" glyph-name="magnifying-glass" d="M1015.031-11.778l-248.848 248.848c66.753 76.743 107.168 176.873 107.168 286.311 0 240.901-195.945 436.619-436.619 436.619-240.901 0-436.619-195.945-436.619-436.619s195.945-436.619 436.619-436.619c109.439 0 209.568 40.415 286.311 107.168l248.848-248.848c5.903-5.903 13.85-9.082 21.57-9.082s15.667 2.952 21.57 9.082c11.807 11.807 11.807 31.333 0 43.14zM61.19 523.381c0 207.071 168.472 375.315 375.315 375.315 207.071 0 375.315-168.472 375.315-375.315s-168.245-375.542-375.315-375.542c-206.843 0-375.315 168.472-375.315 375.542z" />
<glyph unicode="&#xe903;" glyph-name="shopping-cart" d="M307.407 285.773h564.225c63.978 0 116.17 52.192 116.17 116.17v237.391c0 0.21 0 0.631 0 0.842 0 0.631 0 1.052 0 1.684 0 0.421 0 0.842-0.21 1.263 0 0.421-0.21 1.052-0.21 1.473s-0.21 0.842-0.21 1.263c-0.21 0.421-0.21 0.842-0.421 1.473-0.21 0.421-0.21 0.842-0.421 1.263s-0.21 0.842-0.421 1.263c-0.21 0.421-0.421 0.842-0.631 1.473-0.21 0.421-0.421 0.842-0.631 1.052-0.21 0.421-0.421 0.842-0.631 1.263s-0.421 0.631-0.631 1.052c-0.21 0.421-0.631 0.842-0.842 1.263s-0.421 0.631-0.842 1.052c-0.21 0.421-0.631 0.631-0.842 1.052s-0.631 0.631-0.842 1.052-0.631 0.631-0.842 0.842c-0.421 0.421-0.631 0.631-1.052 1.052-0.421 0.21-0.631 0.631-1.052 0.842s-0.842 0.631-1.263 0.842c-0.421 0.21-0.631 0.421-1.052 0.631s-0.842 0.421-1.263 0.842c-0.421 0.21-0.842 0.421-1.263 0.631s-0.842 0.421-1.263 0.631-0.842 0.421-1.263 0.631-0.842 0.21-1.263 0.421c-0.421 0.21-1.052 0.421-1.473 0.421s-0.842 0.21-1.052 0.21-1.052 0.21-1.684 0.21c-0.21 0-0.421 0.21-0.842 0.21l-715.12 98.703v99.755c0 1.052 0 2.105-0.21 2.946 0 0.21 0 0.421-0.21 0.842 0 0.631-0.21 1.263-0.21 1.894-0.21 0.631-0.21 1.052-0.421 1.684 0 0.421-0.21 0.631-0.21 1.052-0.21 0.631-0.421 1.263-0.631 1.894 0 0.21-0.21 0.631-0.21 0.842-0.21 0.631-0.421 1.052-0.842 1.684-0.21 0.21-0.21 0.631-0.421 0.842-0.21 0.421-0.421 0.842-0.842 1.263-0.21 0.421-0.421 0.631-0.631 1.052s-0.421 0.631-0.631 1.052-0.631 0.842-0.842 1.263c-0.21 0.21-0.421 0.421-0.631 0.631-0.421 0.421-0.842 0.842-1.263 1.263-0.21 0.21-0.421 0.421-0.631 0.631-0.421 0.421-0.842 0.842-1.473 1.263-0.21 0.21-0.631 0.421-0.842 0.631-0.421 0.421-0.842 0.631-1.263 1.052-0.631 0.421-1.263 0.842-1.684 1.052-0.21 0.21-0.421 0.21-0.631 0.421-0.842 0.421-1.894 0.842-2.736 1.263l-155.104 65.24c-14.521 6.103-31.147-0.631-37.25-15.153s0.631-31.147 15.153-37.25l137.636-58.085v-622.521c0-58.927 44.195-107.752 101.228-115.118-10.312-17.257-16.415-37.461-16.415-58.927 0-63.346 51.561-114.697 114.697-114.697s114.697 51.561 114.697 114.697c0 21.045-5.682 41.038-15.784 57.875h255.49c-10.102-17.047-15.784-36.829-15.784-57.875 0-63.346 51.561-114.697 114.697-114.697s114.697 51.561 114.697 114.697-51.561 114.697-114.697 114.697h-536.656c-32.831 0-59.348 26.728-59.348 59.348v77.026c17.257-10.102 37.671-15.994 59.348-15.994zM448.831 50.907c0-31.989-26.096-57.875-57.875-57.875s-57.875 26.096-57.875 57.875 26.096 57.875 57.875 57.875 57.875-25.886 57.875-57.875zM902.148 50.907c0-31.989-26.096-57.875-57.875-57.875s-57.875 26.096-57.875 57.875 26.096 57.875 57.875 57.875 57.875-25.886 57.875-57.875zM871.632 342.596h-564.225c-32.831 0-59.348 26.728-59.348 59.348v307.051l682.921-94.073v-212.768c0-33.041-26.728-59.558-59.348-59.558z" />
<glyph unicode="&#xe904;" glyph-name="building" d="M686.24 192h60v-85.334h-60v85.334zM799.64 192h60v-85.334h-60v85.334zM686.24 384h60v-85.334h-60v85.334zM799.64 384h60v-85.334h-60v85.334zM686.24 576h60v-85.334h-60v85.334zM799.64 576h60v-85.334h-60v85.334zM799.64 768h60v-85.334h-60v85.334zM354.76 192h60v-85.334h-60v85.334zM468.16 192h60v-85.334h-60v85.334zM354.76 384h60v-85.334h-60v85.334zM468.16 384h60v-85.334h-60v85.334zM468.16 576h60v-85.334h-60v85.334zM968.668-4v964h-167.95l-164.024-171.826h-167.446l-223.518-234.154v-558.020h-104.73v63.486c46.672 13.124 81 56.038 81 106.846 0 61.206-49.794 111-111 111s-111-49.792-111-110.998c0-50.81 34.328-93.724 81-106.846v-63.488h-81v-60h1024v60h-55.332zM60 166.334c0 28.122 22.878 51 51 51s51-22.878 51-51c0-28.122-22.878-51-51-51s-51 22.876-51 51zM577.2-4h-271.47v533.98l189.192 198.194h82.278v-732.174zM908.668-4h-271.468v705.806l189.19 198.194h82.278v-904z" />
<glyph unicode="&#xe905;" glyph-name="right-arrow" d="M1012.268 476.314c-0.012 0.012-0.022 0.026-0.036 0.038l-209.008 208c-15.658 15.582-40.984 15.524-56.57-0.136-15.584-15.658-15.524-40.984 0.134-56.568l140.328-139.648h-847.116c-22.092 0-40-17.908-40-40s17.908-40 40-40h847.114l-140.324-139.648c-15.658-15.584-15.718-40.91-0.134-56.568 15.586-15.662 40.914-15.716 56.57-0.136l209.008 208c0.012 0.012 0.022 0.026 0.036 0.038 15.666 15.636 15.616 41.044-0.002 56.628z" />
<glyph unicode="&#xe906;" glyph-name="town" d="M928 0v768h32c8.837 0 16 7.163 16 16v0 112c0 8.836-7.164 15.999-16 15.999-0.493 0-0.981-0.022-1.462-0.066l0.062 0.005-544-48c-8.213-0.743-14.6-7.595-14.6-15.938v0-64c0-8.837 7.163-16 16-16v0h32v-256h32v256h416v-768h-104.852c5.557 8.903 8.852 19.715 8.852 31.297 0 0.085 0 0.169-0.001 0.254v-0.013c0 22.882-11.982 34.95-20.73 43.762-7.818 7.872-11.27 11.73-11.27 20.7 0 39.756-21.984 80-64 80s-64-40.244-64-80c0-8.97-3.454-12.828-11.268-20.7-8.75-8.812-20.732-20.88-20.732-43.762 0-0.073-0.001-0.159-0.001-0.246 0-11.579 3.293-22.39 8.993-31.546l-0.147 0.253h-168.846v208c0 8.837-7.163 16-16 16v0h-96c-8.837 0-16-7.163-16-16v0-208h-48v282.536l192 84 192-84v-90.536h32v76.536l25.586-11.2c1.889-0.848 4.094-1.342 6.414-1.342 8.837 0 16 7.163 16 16 0 0.002 0 0.004 0 0.006v0 80c0 6.516-3.895 12.122-9.484 14.617l-0.102 0.041-256 112c-1.889 0.848-4.094 1.342-6.414 1.342s-4.525-0.494-6.516-1.382l0.102 0.041-256-112c-5.691-2.536-9.586-8.142-9.586-14.658v0-80c0-8.836 7.163-16 16-16 2.32 0 4.525 0.494 6.516 1.382l-0.102-0.041 25.586 11.2v-268.542h-112v272h32v32h-96v352h352v32h-105.372l-59.314 59.314c-2.895 2.895-6.895 4.686-11.313 4.686 0 0 0 0-0.001 0h-128c-8.837 0-16-7.163-16-16v0-48h-48c-8.837 0-16-7.163-16-16v0-384c0-8.837 7.163-16 16-16v0h48v-272h-64v-32h960v32zM432 833.35l512 45.176v-78.526h-512zM224 296.464v45.072l240 105 240-105v-45.072l-16 7v0.536h-1.224l-216.362 94.658c-1.889 0.848-4.094 1.342-6.414 1.342s-4.525-0.494-6.516-1.382l0.102 0.041-216.362-94.658h-1.224v-0.536zM128 720h105.374l32-32h-137.374zM352 192h64v-192h-64zM672 0c-8.812 0-32 9.698-32 31.538 0 9.304 3.506 13.228 11.44 21.218 8.676 8.74 20.56 20.708 20.56 43.244 0 37.968 20.932 48 32 48 25.312 0 32-31.4 32-48 0-22.536 11.882-34.504 20.558-43.244 7.932-8 11.44-11.914 11.44-21.218 0.002-21.84-23.188-31.538-31.998-31.538zM496 192c-8.837 0-16-7.163-16-16v0-80c0-8.837 7.163-16 16-16v0h96c8.837 0 16 7.163 16 16v0 80c0 8.837-7.163 16-16 16v0zM576 112h-64v48h64zM368 288h32v-32h-32v32zM272 432v160h144v32h-304c-8.837 0-16-7.163-16-16v0-256c0-8.837 7.163-16 16-16v0h48v32h-32v224h112v-160zM544 592h96c8.837 0 16 7.163 16 16v0 96c0 8.837-7.163 16-16 16v0h-96c-8.837 0-16-7.163-16-16v0-96c0-8.837 7.163-16 16-16v0zM560 688h64v-64h-64zM736 592h96c8.837 0 16 7.163 16 16v0 96c0 8.837-7.163 16-16 16v0h-96c-8.837 0-16-7.163-16-16v0-96c0-8.837 7.163-16 16-16v0zM752 688h64v-64h-64zM528 480h32v32h64v-80h32v96c0 8.837-7.163 16-16 16v0h-96c-8.837 0-16-7.163-16-16v0zM720 432c0-8.837 7.163-16 16-16v0h96c8.837 0 16 7.163 16 16v0 96c0 8.837-7.163 16-16 16v0h-96c-8.837 0-16-7.163-16-16v0zM752 512h64v-64h-64zM768 272v-32h64c8.837 0 16 7.163 16 16v0 96c0 8.837-7.163 16-16 16v0h-64v-32h48v-64zM160 224h32v-32h-32v32z" />
<glyph unicode="&#xe907;" glyph-name="agent" d="M144 247.984c-79.408 0-144-64.592-144-144 0-8.848 7.152-16 16-16s16 7.152 16 16c0 61.744 50.256 112 112 112 8.848 0 16 7.152 16 16s-7.152 16-16 16zM240 247.968l-96 0.016c-8.832 0-16-7.152-16-16 0-8.832 7.152-16 16-16l96-0.016c8.832 0 16 7.152 16 16 0 8.832-7.152 16-16 16zM560 247.968l-96 0.032c-8.832 0-16-7.152-16-16 0-8.832 7.152-16 16-16l96-0.032c8.832 0 16 7.152 16 16 0 8.832-7.152 16-16 16zM32 103.984c0 8.848-7.168 16-16 16-8.848 0-16-7.168-16-16l0.016-111.984c0-8.848 7.168-16 16-16 8.848 0 16 7.168 16 16l-0.016 111.984zM32.016-8.032v0.032c0 8.848-7.152 16-16 16s-16-7.152-16-16c0-17.648 14.352-32 32-32 8.848 0 16 7.152 16 15.984 0 8.848-7.152 15.984-16 15.984zM608-8h-575.984c-8.848 0-16-7.152-16-16s7.152-16 16-16h575.984c8.848 0 16 7.152 16 16s-7.152 16-16 16zM240 339.664c-8.848 0-16-7.152-16-16v-91.696c0-8.848 7.152-16 16-16s16 7.152 16 16v91.696c0 8.848-7.152 16-16 16zM464 339.664c-8.848 0-16-7.152-16-16v-91.664c0-8.848 7.152-16 16-16s16 7.152 16 16v91.664c0 8.848-7.152 16-16 16zM592 551.984c-8.848 0-16-7.152-16-16 0-123.52-100.48-224-224-224s-224 100.48-224 224c0 8.848-7.152 16-16 16s-16-7.152-16-16c0-141.152 114.848-256 256-256s256 114.848 256 256c0 8.848-7.152 16-16 16zM112 728c-8.848 0-16-7.152-16-16v-176.016c0-8.848 7.152-16 16-16s16 7.152 16 16v176.016c0 8.848-7.152 16-16 16zM592 743.968c-8.848 0-16-7.152-16-16v-191.984c0-8.848 7.152-16 16-16s16 7.152 16 16v191.984c0 8.848-7.152 16-16 16zM480 855.968c-8.848 0-16-7.152-16-16s7.152-16 16-16c52.944 0 96-43.056 96-96 0-8.848 7.152-16 16-16s16 7.152 16 16c0 70.576-57.424 128-128 128zM480 936c-8.848 0-16-7.152-16-16v-80.032c0-8.848 7.152-16 16-16s16 7.152 16 16v80.032c0 8.848-7.152 16-16 16zM480 936h-160c-8.848 0-16-7.152-16-16s7.152-16 16-16h160c8.848 0 16 7.152 16 16s-7.152 16-16 16zM320 936c-123.52 0-224-100.48-224-224 0-8.848 7.152-16 16-16s16 7.152 16 16c0 105.872 86.128 192 192 192 8.848 0 16 7.152 16 16s-7.152 16-16 16zM603.312 643.312l-64 64c-6.256 6.256-16.368 6.256-22.624 0s-6.256-16.368 0-22.624l64-64c3.12-3.12 7.216-4.688 11.312-4.688s8.192 1.568 11.312 4.688c6.256 6.256 6.256 16.368 0 22.624zM541.712 704.208c-4.528 7.552-14.288 10.048-21.936 5.52-0.768-0.464-77.6-45.728-167.776-45.728s-167.008 45.264-167.792 45.744c-7.632 4.528-17.408 2.032-21.936-5.52-4.528-7.584-2.080-17.392 5.488-21.936 3.424-2.048 84.944-50.288 184.24-50.288s180.816 48.24 184.224 50.272c7.568 4.544 10.016 14.352 5.488 21.936zM187.312 707.312c-6.256 6.256-16.368 6.256-22.624 0l-64-64c-6.256-6.256-6.256-16.368 0-22.624 3.12-3.12 7.216-4.688 11.312-4.688s8.192 1.568 11.312 4.688l64 64c6.256 6.256 6.256 16.368 0 22.624zM296.88 213.312l-48 31.968c-7.392 4.896-17.312 2.912-22.192-4.432-4.912-7.36-2.912-17.296 4.432-22.192l48-31.968c2.736-1.808 5.824-2.688 8.864-2.688 5.168 0 10.256 2.496 13.328 7.12 4.912 7.36 2.912 17.296-4.432 22.192zM366.304 239.168c-3.968 7.904-13.584 11.088-21.472 7.152l-64-32c-7.904-3.952-11.104-13.568-7.152-21.472 2.816-5.616 8.464-8.848 14.336-8.848 2.4 0 4.848 0.544 7.136 1.696l64 32c7.904 3.952 11.104 13.568 7.152 21.472zM477.312 240.848c-4.896 7.344-14.832 9.328-22.192 4.432l-48-31.968c-7.344-4.896-9.344-14.832-4.432-22.192 3.072-4.624 8.16-7.12 13.328-7.12 3.040 0 6.128 0.88 8.864 2.688l48 31.968c7.344 4.896 9.344 14.832 4.432 22.192zM423.168 214.304l-64 32c-7.904 3.936-17.504 0.752-21.472-7.152-3.952-7.904-0.752-17.52 7.152-21.472l64-32c2.288-1.136 4.736-1.68 7.136-1.68 5.872 0 11.52 3.232 14.336 8.832 3.952 7.904 0.752 17.52-7.152 21.472zM352.48 152h-0.176c-8.832 0-15.904-7.152-15.904-16s7.232-16 16.080-16c8.832 0 16 7.152 16 16s-7.168 16-16 16zM352.48 72h-0.176c-8.832 0-15.904-7.152-15.904-16s7.232-16 16.080-16c8.832 0 16 7.152 16 16s-7.168 16-16 16zM797.888 399.936c-4.384 7.664-14.16 10.384-21.824 5.952l-224-128c-7.664-4.384-10.336-14.16-5.952-21.824 2.944-5.168 8.336-8.064 13.904-8.064 2.688 0 5.424 0.672 7.92 2.112l224 128c7.664 4.384 10.336 14.16 5.952 21.824zM1015.936 277.888l-224 128c-7.68 4.432-17.456 1.712-21.824-5.952-4.384-7.664-1.712-17.44 5.952-21.824l224-128c2.496-1.44 5.232-2.112 7.92-2.112 5.568 0 10.96 2.896 13.904 8.064 4.384 7.664 1.712 17.44-5.952 21.824zM797.888 335.936c-4.384 7.664-14.16 10.368-21.824 5.952l-224-128c-7.664-4.384-10.336-14.16-5.952-21.824 2.944-5.168 8.336-8.064 13.904-8.064 2.688 0 5.424 0.672 7.92 2.112l224 128c7.664 4.384 10.336 14.16 5.952 21.824zM1015.936 213.888l-224 128c-7.68 4.416-17.456 1.712-21.824-5.952-4.384-7.664-1.712-17.44 5.952-21.824l224-128c2.496-1.44 5.232-2.112 7.92-2.112 5.568 0 10.96 2.896 13.904 8.064 4.384 7.664 1.712 17.44-5.952 21.824zM560 280c-8.848 0-16-7.152-16-16v-64c0-8.848 7.152-16 16-16s16 7.152 16 16v64c0 8.848-7.152 16-16 16zM1008 280c-8.848 0-16-7.152-16-16v-64c0-8.848 7.152-16 16-16s16 7.152 16 16v64c0 8.848-7.152 16-16 16zM592 234.304c-8.848 0-16-7.152-16-16v-242.304c0-8.848 7.152-16 16-16s16 7.152 16 16v242.304c0 8.848-7.152 16-16 16zM976-8h-384c-8.848 0-16-7.152-16-16s7.152-16 16-16h384c8.848 0 16 7.152 16 16s-7.152 16-16 16zM991.984 218.304c0 8.848-7.168 16-16 16-8.848 0-16-7.168-16-16l0.016-242.304c0-8.848 7.168-16 16-16 8.848 0 16 7.168 16 16l-0.016 242.304zM832 168h-96c-8.848 0-16-7.152-16-16v-176c0-8.848 7.152-16 16-16h96c8.848 0 16 7.152 16 16v176c0 8.848-7.152 16-16 16zM816-8h-64v144h64v-144zM768.48 88h-0.176c-8.832 0-15.904-7.152-15.904-16s7.232-16 16.080-16c8.832 0 16 7.152 16 16s-7.168 16-16 16z" />
<glyph unicode="&#xe908;" glyph-name="assets" d="M64-32h96c17.648 0 32 14.352 32 32v32h361.696c80.384 0 158.928 22.528 227.088 65.12 102.768 64.24 173.792 169.536 194.864 288.896l6.944 39.328c3.104 17.568-1.68 35.488-13.152 49.152s-28.288 21.504-46.128 21.504c-9.744 0-19.024-2.416-27.312-6.64v70.64h16c6.464 0 12.32 3.904 14.784 9.872 2.48 5.984 1.104 12.864-3.472 17.44l-128 128c-6.256 6.256-16.368 6.256-22.624 0l-36.688-36.688v217.376c0 8.832-7.152 16-16 16h-160c-8.848 0-16-7.168-16-16v-176h-64.832c-12.176 26.784-21.184 42.448-28.416 51.536l40.432 98.816c4.496 10.8 1.872 22.944-6.688 30.928-8.56 8-20.864 9.744-31.312 4.528l-30.256-15.12-19.056 25.408c-4.816 6.432-12.176 10.464-20.192 11.040-8.032 0.592-15.888-2.336-21.632-8.048l-24.336-24.32-15.984 21.328c-4.832 6.448-12.192 10.464-20.224 11.040-8.016 0.592-15.904-2.352-21.6-8.048l-30.704-30.704-46.144 13.184c-10.832 3.104-22.272-0.576-29.264-9.328-7.008-8.752-8.080-20.768-2.72-30.576l48.384-89.328c-33.968-30.688-75.456-116.912-75.456-195.264v-49.072c0-52.944 43.056-96 96-96h614.112l-33.792-67.6-87.984-37.712c-9.872 33.008-40.16 57.312-76.336 57.312h-230.352c-83.264 0-163.376-22.944-233.648-66.336v34.336c0 17.648-14.352 32-32 32h-96c-17.648 0-32-14.352-32-32v-352c0-17.648 14.352-32 32-32zM242.832 856.912c9.68-2.768 20.128-0.080 27.232 7.056l29.008 29.008 16-21.36c4.848-6.432 12.224-10.464 20.256-11.024 8.128-0.528 15.872 2.384 21.552 8.064l24.336 24.32 18.256-24.32c8.016-10.752 22.544-14.208 34.592-8.192l23.28 11.648-36.096-88.112h-43.36l20.416 40.848-28.624 14.32-27.568-55.168h-28.048l-22.304 46.4-28.848-13.872 15.632-32.528h-29.024l-45.488 84zM400 704v-240h-160c-35.296 0-64 28.704-64 64v49.072c0 85.648 53.008 165.52 68.176 174.928h181.232c2.592-3.136 8.464-11.552 18.4-32h-27.808c-8.848 0-16-7.168-16-16zM432 688h112v-224h-112zM784 681.376l89.376-89.376h-178.752zM576 880h128v-233.376l-59.312-59.312c-4.576-4.576-5.952-11.456-3.472-17.44 2.464-5.968 8.32-9.872 14.784-9.872h16v-96h-96zM704 560h160v-96h-32v64c0 8.832-7.152 16-16 16h-64c-8.848 0-16-7.168-16-16v-64h-32zM800 464h-32v48h32zM425.648 352h230.352c26.464 0 48-21.536 48-48s-21.536-48-48-48h-256v-32h256c40.336 0 73.456 30.112 78.88 68.976l103.408 44.32c3.488 1.488 6.336 4.16 8.016 7.552l51.776 103.568c4.832 9.616 14.48 15.584 25.232 15.584 8.352 0 16.24-3.664 21.616-10.080s7.632-14.8 6.176-23.024l-6.944-39.328c-19.504-110.448-85.216-207.872-180.336-267.312-63.072-39.424-135.728-60.256-210.128-60.256h-361.696v215.392c69.104 47.392 149.648 72.608 233.648 72.608zM64 352h96l0.016-352h-96.016zM96 304h32v-48h-32zM608 848h16v-32h-16zM656 848h16v-32h-16zM608 784h16v-32h-16zM656 784h16v-32h-16zM608 720h16v-32h-16zM656 720h16v-32h-16zM464 656h16v-32h-16zM512 656h16v-32h-16zM464 592h16v-32h-16zM512 592h16v-32h-16zM464 528h16v-32h-16zM512 528h16v-32h-16zM608 656h16v-32h-16zM656 656h16v-32h-16zM352 672h-16v16h-32v-16h-16c-8.848 0-16-7.168-16-16v-48c0-8.832 7.152-16 16-16h48v-16h-64v-16c0-8.832 7.152-16 16-16h16v-16h32v16h16c8.848 0 16 7.168 16 16v48c0 8.832-7.152 16-16 16h-48v16h64v16c0 8.832-7.152 16-16 16zM848 896h32v-32h-32zM880 928h32v-32h-32zM912 896h32v-32h-32zM880 864h32v-32h-32zM960 816h32v-32h-32zM848 768h32v-32h-32zM32 784h32v-32h-32zM64 816h32v-32h-32zM96 784h32v-32h-32zM64 752h32v-32h-32zM32 656h32v-32h-32zM96 928h32v-32h-32z" />
<glyph unicode="&#xe909;" glyph-name="rent" d="M176 832h48v-64c0-26.51 21.49-48 48-48s48 21.49 48 48v0 32h-32v-32c0-8.837-7.163-16-16-16s-16 7.163-16 16v0 96c0 17.673 14.327 32 32 32s32-14.327 32-32v0h-32v-32h384v-96c0-8.837 7.163-16 16-16v0h96v-192h32v208c0 0 0 0 0 0.001 0 4.418-1.791 8.418-4.686 11.313l-112 112c-2.895 2.895-6.895 4.686-11.313 4.686 0 0 0 0-0.001 0h-336c0 35.346-28.654 64-64 64s-64-28.654-64-64v0h-64c-8.837 0-16-7.163-16-16v0-384h32zM704 809.374l57.374-57.374h-57.374zM784 48h-112v-32h128c8.837 0 16 7.163 16 16v0 208h-32zM336 192c-8.837 0-16-7.163-16-16v0-80c0-8.837 7.163-16 16-16v0h96c8.837 0 16 7.163 16 16v0 80c0 8.837-7.163 16-16 16v0zM416 112h-64v48h64zM208 288h32v-32h-32zM608 96c0 39.756-21.984 80-64 80s-64-40.244-64-80c0-8.97-3.454-12.828-11.268-20.7-8.75-8.812-20.732-20.88-20.732-43.762 0-0.073-0.001-0.159-0.001-0.246 0-11.579 3.293-22.39 8.993-31.546l-0.147 0.253h-168.846v208c0 8.837-7.163 16-16 16v0h-96c-8.837 0-16-7.163-16-16v0-208h-48v282.536l192 84 192-84v-90.536h32v76.536l25.586-11.2c1.889-0.848 4.094-1.342 6.414-1.342 8.837 0 16 7.163 16 16 0 0.002 0 0.004 0 0.006v0 80c0 6.516-3.895 12.122-9.484 14.617l-0.102 0.041-256 112c-1.889 0.848-4.094 1.342-6.414 1.342s-4.525-0.494-6.516-1.382l0.102 0.041-256-112c-5.691-2.536-9.586-8.142-9.586-14.658v0-80c0-8.836 7.163-16 16-16 2.32 0 4.525 0.494 6.516 1.382l-0.102-0.041 25.586 11.194v-268.536h-48v-32h544c12.77 0 28.044 5.746 39.86 15 14.728 11.201 24.14 28.736 24.14 48.469 0 0.024 0 0.049 0 0.073v-0.004c0 22.882-11.982 34.95-20.73 43.762-7.818 7.872-11.27 11.73-11.27 20.7zM64 296.464v45.072l240 105 240-105v-45.072l-16 7v0.536h-1.224l-216.362 94.658c-1.889 0.848-4.094 1.342-6.414 1.342s-4.525-0.494-6.516-1.382l0.102 0.041-216.362-94.658h-1.224v-0.536zM192 192h64v-192h-64zM576 0h-64c-8.812 0-32 9.698-32 31.538 0 9.304 3.506 13.228 11.44 21.218 8.676 8.74 20.56 20.708 20.56 43.244 0 37.968 20.932 48 32 48 25.312 0 32-31.4 32-48 0-22.536 11.882-34.504 20.558-43.244 7.932-8 11.44-11.914 11.44-21.218 0.002-21.84-23.198-31.538-31.998-31.538zM936.904 499.034l37.818 55.922c5.232 7.575 8.357 16.955 8.357 27.064 0 26.51-21.49 48-48 48-16.549 0-31.142-8.375-39.771-21.117l-0.108-0.169-259.936-384.356c-1.33-1.947-2.252-4.276-2.591-6.79l-0.009-0.082-9.346-70.942c-0.087-0.627-0.137-1.351-0.137-2.087 0-8.837 7.163-16 16-16 2.883 0 5.587 0.762 7.923 2.096l-0.079-0.041 62.36 35.088c2.189 1.248 3.999 2.923 5.364 4.925l0.036 0.055 203.64 301.112 22.026-24.554-64.708-95.682 26.506-17.926 71.708 106.030c1.719 2.513 2.746 5.618 2.746 8.962 0 4.113-1.552 7.864-4.103 10.698l0.013-0.015zM921.704 590.808c2.913 4.302 7.776 7.093 13.291 7.093 8.837 0 16-7.163 16-16 0-3.37-1.042-6.496-2.82-9.074l0.035 0.054-33.336-49.292-22.026 24.554zM690.4 191.654l-31.182-17.542 4.674 35.47 42.7 63.138 26.508-17.926zM751.026 281.3l-26.508 17.928 149.86 221.6 22.022-24.562zM272 672h32v-32h-32zM336 672h384v-32h-384zM240 608h480v-32h-480zM240 544h480v-32h-480zM480 480h240v-32h-240zM608 416h48v-32h-48z" />
<glyph unicode="&#xe90a;" glyph-name="bed" d="M942 447.798v286.202c0 66.168-53.832 120-120 120h-622c-66.168 0-120-53.832-120-120v-286.88c-46.556-16.514-80-60.974-80-113.12v-220h80v-72h80v72h704v-72h80v72h80v220c0 52.888-34.406 97.862-82 113.798zM160 734c0 22.056 17.944 40 40 40h622c22.056 0 40-17.944 40-40v-280h-42v40c0 66.168-53.832 120-120 120h-108c-30.71 0-58.752-11.61-80-30.654-21.248 19.044-49.29 30.654-80 30.654h-112c-66.168 0-120-53.832-120-120v-40h-40v280zM740 494v-40h-188v40c0 22.056 17.944 40 40 40h108c22.056 0 40-17.944 40-40zM472 494v-40h-192v40c0 22.056 17.944 40 40 40h112c22.056 0 40-17.944 40-40zM944 194h-864v140c0 22.056 17.944 40 40 40h784c22.056 0 40-17.944 40-40v-140z" />
<glyph unicode="&#xe90b;" glyph-name="shower" d="M853.335 426.666c-23.595 0-42.666 19.114-42.666 42.666v320.001c0 47.062-38.272 85.332-85.332 85.332h-32.001c-29.397 0-53.334-23.937-53.334-53.334 0-23.552-19.071-42.666-42.666-42.666s-42.666 19.114-42.666 42.666c-0.002 76.461 62.205 138.668 138.664 138.668h32.001c94.122 0 170.667-76.545 170.667-170.667v-320.001c0-23.55-19.073-42.666-42.666-42.666zM693.334 661.332h-192c-17.663 0-32.001 14.335-32.001 32.001v32.001c0 70.57 57.429 128.001 128.001 128.001s128.001-57.429 128.001-128.001v-32.001c0-17.663-14.335-32.001-32.001-32.001zM255.957-64c-6.4 0-12.928 1.45-19.030 4.479-21.077 10.539-29.61 36.181-19.071 57.258l42.666 85.332c10.582 21.077 36.181 29.653 57.258 19.073 21.077-10.539 29.61-36.181 19.071-57.258l-42.666-85.332c-7.506-14.935-22.568-23.552-38.228-23.552zM768.043-64c-15.66 0-30.719 8.619-38.23 23.595l-42.666 85.332c-10.539 21.077-2.006 46.72 19.071 57.258 21.034 10.582 46.678 2.006 57.258-19.071l42.666-85.332c10.539-21.077 2.006-46.72-19.071-57.258-6.101-3.074-12.629-4.524-19.028-4.524zM917.334 490.665h-810.667c-58.838 0-106.668-47.872-106.668-106.666 0-5.163 0.555-10.283 1.151-15.403 0.256-2.262 0.726-4.479 1.322-6.656l60.543-209.621c18.219-77.141 86.571-130.987 166.102-130.987h565.762c79.531 0 147.883 53.844 165.59 128.939l61.056 211.627c0.641 2.177 1.066 4.437 1.322 6.656 0.598 5.163 1.151 10.283 1.151 15.446 0 58.794-47.829 106.666-106.666 106.666zM877.953 171.946c-9.13-38.443-43.307-65.281-83.072-65.281h-565.76c-39.808 0-73.941 26.838-83.585 67.285l-54.442 188.717h841.815z" />
<glyph unicode="&#xe90c;" glyph-name="square-measument" d="M729.913 718.244h-678.988c-28.13 0-50.925-22.791-50.925-50.923v-678.988c0-28.13 22.795-50.925 50.925-50.925h678.988c28.13 0 50.923 22.795 50.923 50.925v678.988c0 28.132-22.793 50.923-50.923 50.923zM678.988 39.258h-577.14v577.14h577.14v-577.14zM1013.905 101.885h-55.233v594.314h55.233c4.079 0 7.758 2.454 9.316 6.231 1.575 3.779 0.712 8.108-2.187 11.006l-89.167 89.167c-3.946 3.946-10.343 3.946-14.287 0l-89.169-89.167c-2.9-2.9-3.762-7.227-2.187-11.006 1.56-3.777 5.239-6.231 9.318-6.231h55.233v-594.314h-55.233c-4.079 0-7.758-2.452-9.318-6.231-1.573-3.781-0.712-8.11 2.187-11.010l89.169-89.167c3.944-3.946 10.343-3.946 14.287 0l89.167 89.167c2.902 2.9 3.764 7.227 2.187 11.010-1.558 3.779-5.235 6.231-9.316 6.231zM147.235 763.002c2.9-2.9 7.227-3.762 11.008-2.187 3.779 1.556 6.233 5.237 6.233 9.316v55.233h594.314v-55.233c0-4.079 2.452-7.76 6.231-9.316 3.779-1.575 8.106-0.712 11.008 2.187l89.167 89.167c3.946 3.948 3.946 10.347 0 14.291l-89.167 89.165c-2.902 2.902-7.227 3.764-11.008 2.189-3.779-1.558-6.231-5.237-6.231-9.316v-55.237h-594.314v55.237c0 4.077-2.452 7.758-6.233 9.316-3.779 1.575-8.108 0.712-11.008-2.189l-89.165-89.165c-3.946-3.944-3.946-10.343 0-14.291l89.165-89.167z" />
<glyph unicode="&#xe90d;" glyph-name="home" d="M943.964 125.984q0.036 1.016 0.036 2.016c-0.041 35.33-28.67 63.959-63.996 64h-0.004v296l57.6 43.2c3.903 2.95 6.4 7.583 6.4 12.8 0 5.286-2.564 9.974-6.516 12.887l-0.044 0.031-137.44 100.438v174.644c8.837 0 16 7.163 16 16v0 64c0 8.837-7.163 16-16 16v0h-160c-8.837 0-16-7.163-16-16v0-64c0-8.837 7.163-16 16-16v0-57.722l-118.56 86.64c-2.61 1.925-5.89 3.082-9.44 3.082s-6.83-1.156-9.484-3.113l0.044 0.031-416-304c-3.996-2.944-6.56-7.632-6.56-12.918 0-5.216 2.496-9.85 6.359-12.771l0.040-0.029 57.6-43.2v-296c-35.33-0.041-63.959-28.67-64-63.996v-0.004q0-1 0.036-2.016c-27.855-7.337-48.063-32.301-48.063-61.984 0-35.346 28.654-64 64-64 0.010 0 0.019 0 0.029 0h831.999c0.008 0 0.018 0 0.027 0 35.346 0 64 28.654 64 64 0 29.683-20.208 54.647-47.617 61.884l-0.446 0.1zM656 896h128v-32h-128zM672 752v80h96v-151.26l-97.514 71.26zM512 828.184l389.11-284.352-37.256-27.942-342.442 249.050c-2.604 1.913-5.874 3.061-9.412 3.061s-6.808-1.148-9.457-3.092l0.045 0.031-342.442-249.050-37.256 27.942zM64 64c0.019 17.497 14.062 31.709 31.493 32h0.065c0.818-0.114 1.636-0.212 2.47-0.266 0.301-0.020 0.653-0.032 1.008-0.032 8.837 0 16 7.163 16 16 0 1.96-0.353 3.839-0.998 5.574l0.036-0.111c-1.266 3.21-2.022 6.926-2.074 10.812v0.022c0.022 17.664 14.336 31.978 31.998 32h0.002v-128h-48c-17.664 0.022-31.978 14.336-32 31.998v0.002zM752 32h-192v352h192zM784 32v368c0 8.837-7.163 16-16 16v0h-224c-8.837 0-16-7.163-16-16v0-368h-352v455.852l336 244.364 336-244.364v-455.852zM928 32h-48v128c17.664-0.022 31.978-14.336 32-31.998v-0.002c-0.051-3.91-0.807-7.629-2.148-11.056l0.074 0.214c-0.609-1.625-0.962-3.503-0.962-5.464 0-8.837 7.163-16 16-16 0.355 0 0.706 0.012 1.055 0.034l-0.047-0.002c0.834 0.054 1.652 0.152 2.47 0.266h0.038c17.57-0.136 31.761-14.411 31.761-32 0-17.674-14.327-32.001-32.001-32.001-0.084 0-0.169 0-0.253 0.001h0.013zM448 416h-192c-8.837 0-16-7.163-16-16v0-224c0-8.837 7.163-16 16-16v0h192c8.837 0 16 7.163 16 16v0 224c0 8.837-7.163 16-16 16v0zM432 304h-64v80h64zM336 384v-80h-64v80zM272 272h64v-80h-64zM368 192v80h64v-80zM614.124 238.782c8.164-3.382 12.041-12.741 8.659-20.905s-12.741-12.041-20.905-8.659c-8.164 3.382-12.041 12.741-8.659 20.905s12.741 12.041 20.905 8.659z" />
<glyph unicode="&#xe90e;" glyph-name="house" d="M287.993 224.011h-80c0 0 0 0 0 0-8.836 0-16-7.163-16-16 0 0 0 0 0-0.001v0-80c0 0 0 0 0 0 0-8.836 7.163-16 16-16 0 0 0 0 0.001 0h80c0 0 0 0 0 0 8.836 0 16 7.163 16 16 0 0 0 0 0 0.001v0 80c0 0 0 0 0 0 0 8.836-7.163 16-16 16 0 0 0 0-0.001 0v0zM271.993 144.011h-48v48h48zM815.993 496.011h-144c0 0 0 0 0 0-8.836 0-16-7.163-16-16 0 0 0 0 0-0.001v0-128c0 0 0 0 0 0 0-8.836 7.163-16 16-16 0 0 0 0 0.001 0h144c0 0 0 0 0 0 8.836 0 16 7.163 16 16 0 0 0 0 0 0.001v0 128c0 0 0 0 0 0 0 8.836-7.163 16-16 16 0 0 0 0-0.001 0v0zM687.993 464.011h40v-96h-40zM799.993 368.011h-40v96h40zM431.994 112.010c0-8.837-7.163-16-16-16s-16 7.163-16 16c0 8.837 7.163 16 16 16s16-7.163 16-16zM985.936 556.547l-464 368c-2.703 2.159-6.17 3.464-9.942 3.464s-7.239-1.305-9.975-3.489l0.032 0.025-464-368c-3.705-2.957-6.058-7.471-6.058-12.536 0 0 0 0 0 0v0-48c0 0 0 0 0 0 0-8.836 7.163-16 16-16 0 0 0 0 0.001 0h16v-210.104l-24.875-16.583c-4.321-2.91-7.125-7.784-7.125-13.312 0 0 0 0 0 0v0-48c0 0 0 0 0 0 0-8.836 7.163-16 16-16 0 0 0 0 0.001 0h16v-192c0 0 0 0 0 0 0-8.836 7.163-16 16-16 0 0 0 0 0.001 0h880c0 0 0 0 0 0 8.836 0 16 7.163 16 16 0 0 0 0 0 0.001v0 496c0 0 0 0 0 0 8.836 0 16 7.163 16 16 0 0 0 0 0 0.001v0 48c0 0 0 0 0 0 0 5.064-2.353 9.579-6.025 12.511l-0.032 0.025zM959.993 536.279v-24.269h-26.346l-179.601 145.063c-2.723 2.212-6.232 3.552-10.054 3.552s-7.331-1.34-10.083-3.575l0.030 0.023-179.601-145.063h-26.346v24.269l216 171.311zM484.837 352.011h27.156v-18.104zM607.288 640.011l-79.295-62.889v62.889zM495.993 576.011h-80v64h80zM415.993 544.011h80v-64h-80zM63.993 536.279l448 355.311 206.251-163.579-26.25-20.819-169.948 137.266c-2.723 2.212-6.232 3.552-10.054 3.552s-7.331-1.34-10.083-3.575l0.030 0.023-411.601-332.447h-26.346zM106.047 483.563l405.946 327.88 154.305-124.631-28.556-22.648c-2.831 4.728-7.926 7.845-13.749 7.847h-224c0 0 0 0 0 0-8.836 0-16-7.163-16-16 0 0 0 0 0-0.001v0-192c0 0 0 0 0 0 0-8.836 7.163-16 16-16 0 0 0 0 0.001 0h112v-64h-75.156l-91.969 61.313c-2.494 1.684-5.567 2.688-8.875 2.688s-6.381-1.004-8.932-2.724l0.057 0.036-91.969-61.313h-139.156v96c0 0 0 0 0 0 3.822 0 7.331 1.34 10.083 3.576l-0.030-0.023zM95.993 352.011h91.156l-91.156-60.771zM63.993 231.448l272 181.333 272-181.333v-23.438h-27.155l-235.97 157.313c-2.494 1.684-5.567 2.688-8.875 2.688s-6.381-1.004-8.932-2.724l0.057 0.036-235.97-157.313h-27.155zM639.993 208.011v32c-0.009 5.224-2.524 9.86-6.407 12.769l-0.042 0.030 1.281 3.202h218.335l19.2-48zM735.993 176.011h32v-96h-32zM575.993 128.011h-32v66.104l23.125-15.417c2.493-1.684 5.566-2.688 8.873-2.688 0.001 0 0.001 0 0.002 0v0zM447.993 0.011h-80v192h80zM463.993 224.011h-112c0 0 0 0 0 0-8.836 0-16-7.163-16-16 0 0 0 0 0-0.001v0-208h-176v215.438l176 117.333 176-117.333v-215.438h-32v208c0 0 0 0 0 0 0 8.836-7.163 16-16 16 0 0 0 0-0.001 0v0zM104.868 178.698l23.125 15.417v-66.104h-32v48c0.001 0 0.001 0 0.002 0 3.307 0 6.38 1.004 8.93 2.724l-0.057-0.036zM95.993 96.011h32v-96h-32zM543.993 0.011v96h32v-96zM943.993 0.011h-336v176h32v-48h32v48h32v-112c0 0 0 0 0 0 0-8.836 7.163-16 16-16 0 0 0 0 0.001 0h64c0 0 0 0 0 0 8.836 0 16 7.163 16 16 0 0 0 0 0 0.001v0 112h32v-48h32v48h32c8.836 0 16 7.164 16 16 0 2.141-0.42 4.183-1.183 6.049l0.039-0.107-32 80c-2.424 5.944-8.159 10.058-14.855 10.058 0 0 0 0 0 0h-240c-6.696 0-12.431-4.113-14.817-9.951l-0.039-0.107-2.782-6.955-62.362 41.575v167.438h16c0 0 0 0 0 0 3.822 0 7.331 1.34 10.083 3.576l-0.030-0.023 173.946 140.495 173.946-140.495c2.722-2.213 6.231-3.553 10.054-3.553 0 0 0 0 0 0h16z" />
<glyph unicode="&#xe90f;" glyph-name="condominium" d="M928 16h-48v81.44c45.682 7.754 80.032 47.034 80.032 94.337 0 21.762-7.27 41.826-19.515 57.896l0.171-0.234c2.106 6.792 3.319 14.602 3.319 22.694 0 21.017-8.181 40.123-21.533 54.307l0.038-0.040c3.464 7.524 5.485 16.326 5.488 25.599v0.001c0 35.346-28.654 64-64 64s-64-28.654-64-64v0c0.003-9.274 2.024-18.076 5.648-25.99l-0.16 0.39c-13.309-14.147-21.487-33.254-21.487-54.271 0-8.085 1.21-15.887 3.459-23.235l-0.148 0.562c-12.088-15.84-19.367-35.914-19.367-57.688 0-47.309 34.364-86.591 79.492-94.249l0.564-0.079v-19.552l-23.12 15.424c-2.495 1.685-5.57 2.69-8.88 2.69-8.838 0-16.002-7.164-16.002-16.002 0-5.528 2.803-10.401 7.065-13.276l0.057-0.036 40.88-27.248v-23.44h-128v800h48c8.837 0 16 7.163 16 16v0 64c0 8.837-7.163 16-16 16v0h-512c-8.837 0-16-7.163-16-16v0-64c0-8.837 7.163-16 16-16v0h48v-800h-112v33.44c45.682 7.754 80.032 47.034 80.032 94.337 0 21.762-7.27 41.826-19.515 57.896l0.171-0.234c2.101 6.785 3.312 14.586 3.312 22.67 0 21.013-8.178 40.116-21.525 54.299l0.038-0.041c3.467 7.53 5.488 16.339 5.488 25.62 0 0.004 0 0.009 0 0.013v-0.001c0 35.346-28.654 64-64 64s-64-28.654-64-64v0c0.003-9.274 2.024-18.076 5.648-25.99l-0.16 0.39c-13.309-14.143-21.488-33.246-21.488-54.258 0-8.083 1.21-15.884 3.459-23.231l-0.148 0.561c-12.087-15.841-19.365-35.916-19.365-57.691 0-47.311 34.361-86.597 79.489-94.262l0.564-0.079v-33.44h-128c-8.837 0-16-7.163-16-16s7.163-16 16-16v0h896c8.837 0 16 7.163 16 16s-7.163 16-16 16v0zM800 192c0.056 16.789 6.604 32.038 17.263 43.377l-0.031-0.033c2.642 2.845 4.263 6.67 4.263 10.874 0 2.342-0.503 4.567-1.407 6.571l0.041-0.101c-2.602 5.683-4.119 12.328-4.119 19.327 0 15.661 7.594 29.548 19.3 38.181l0.13 0.092c3.904 2.95 6.4 7.583 6.4 12.8 0 3.62-1.202 6.959-3.229 9.64l0.029-0.040c-4.127 5.276-6.624 12.001-6.64 19.308v0.004c0 17.673 14.327 32 32 32s32-14.327 32-32v0c-0.038-7.27-2.525-13.952-6.677-19.27l0.053 0.070c-1.998-2.641-3.2-5.98-3.2-9.6 0-5.217 2.496-9.85 6.36-12.771l0.040-0.029c11.836-8.714 19.43-22.594 19.43-38.248 0-7.009-1.523-13.663-4.255-19.648l0.121 0.296c-0.86-1.901-1.362-4.121-1.362-6.459 0-4.209 1.625-8.039 4.283-10.895l-0.009 0.010c10.721-11.345 17.312-26.692 17.312-43.578 0-29.6-20.252-54.47-47.655-61.51l-0.44-0.096v45.728c0 8.837-7.163 16-16 16s-16-7.163-16-16v0-45.728c-27.746 7.339-47.886 32.166-48 61.715v0.013zM112 144c0.056 16.789 6.604 32.038 17.263 43.377l-0.031-0.033c2.648 2.847 4.274 6.676 4.274 10.885 0 2.338-0.501 4.558-1.402 6.56l0.041-0.101c-2.612 5.689-4.134 12.343-4.134 19.352 0 15.654 7.594 29.533 19.3 38.156l0.131 0.092c3.904 2.95 6.4 7.583 6.4 12.8 0 3.62-1.202 6.959-3.229 9.64l0.029-0.040c-4.127 5.276-6.624 12.001-6.64 19.308v0.004c0 17.673 14.327 32 32 32s32-14.327 32-32v0c-0.038-7.27-2.525-13.952-6.677-19.27l0.053 0.070c-1.998-2.641-3.2-5.98-3.2-9.6 0-5.217 2.496-9.85 6.36-12.771l0.040-0.029c11.836-8.714 19.43-22.594 19.43-38.248 0-7.009-1.523-13.663-4.255-19.648l0.121 0.296c-0.86-1.901-1.362-4.121-1.362-6.459 0-4.209 1.625-8.039 4.283-10.895l-0.009 0.010c10.721-11.345 17.312-26.692 17.312-43.578 0-29.6-20.252-54.47-47.655-61.51l-0.44-0.096v45.728c0 8.837-7.163 16-16 16s-16-7.163-16-16v0-45.728c-27.746 7.339-47.886 32.166-48 61.715v0.013zM272 880h480v-32h-480zM480 16v96h64v-96zM576 16v112c0 8.837-7.163 16-16 16v0h-96c-8.837 0-16-7.163-16-16v0-112h-112v800h352v-800zM992 16h-16c-8.837 0-16-7.163-16-16s7.163-16 16-16v0h16c8.837 0 16 7.163 16 16s-7.163 16-16 16v0zM480 464h-96c-8.837 0-16-7.163-16-16v0-96c0-8.837 7.163-16 16-16v0h96c8.837 0 16 7.163 16 16v0 96c0 8.837-7.163 16-16 16v0zM464 368h-64v64h64zM640 464h-96c-8.837 0-16-7.163-16-16v0-96c0-8.837 7.163-16 16-16v0h96c8.837 0 16 7.163 16 16v0 96c0 8.837-7.163 16-16 16v0zM624 368h-64v64h64zM480 624h-96c-8.837 0-16-7.163-16-16v0-96c0-8.837 7.163-16 16-16v0h96c8.837 0 16 7.163 16 16v0 96c0 8.837-7.163 16-16 16v0zM464 528h-64v64h64zM640 624h-96c-8.837 0-16-7.163-16-16v0-96c0-8.837 7.163-16 16-16v0h96c8.837 0 16 7.163 16 16v0 96c0 8.837-7.163 16-16 16v0zM624 528h-64v64h64zM480 304h-96c-8.837 0-16-7.163-16-16v0-96c0-8.837 7.163-16 16-16v0h96c8.837 0 16 7.163 16 16v0 96c0 8.837-7.163 16-16 16v0zM464 208h-64v64h64zM640 304h-96c-8.837 0-16-7.163-16-16v0-96c0-8.837 7.163-16 16-16v0h96c8.837 0 16 7.163 16 16v0 96c0 8.837-7.163 16-16 16v0zM624 208h-64v64h64zM480 784h-96c-8.837 0-16-7.163-16-16v0-96c0-8.837 7.163-16 16-16v0h96c8.837 0 16 7.163 16 16v0 96c0 8.837-7.163 16-16 16v0zM464 688h-64v64h64zM640 784h-96c-8.837 0-16-7.163-16-16v0-96c0-8.837 7.163-16 16-16v0h96c8.837 0 16 7.163 16 16v0 96c0 8.837-7.163 16-16 16v0zM624 688h-64v64h64zM864 208c8.837 0 16 7.163 16 16v0 16c0 8.837-7.163 16-16 16s-16-7.163-16-16v0-16c0-8.837 7.163-16 16-16v0zM736 704c0-35.346 28.654-64 64-64v0h112c0.008 0 0.017 0 0.026 0 2.959 0 5.717 0.865 8.033 2.355l-0.059-0.035c23.339 7.106 40.027 28.441 40.027 53.674 0 28.79-21.726 52.506-49.677 55.647l-0.255 0.023c-7.181 27.981-32.178 48.331-61.927 48.331-23.71 0-44.402-12.926-55.412-32.116l-0.165-0.311c-31.993-3.88-56.546-30.85-56.592-63.563v-0.005zM799.44 736l2.368-0.256c0.314-0.022 0.68-0.034 1.050-0.034 6.952 0 12.868 4.433 15.075 10.627l0.035 0.112c4.412 12.66 16.247 21.581 30.165 21.581 17.405 0 31.551-13.951 31.867-31.28v-0.030c0-0.384 0-0.784-0.080-1.088-0.004-0.135-0.006-0.293-0.006-0.453 0-8.837 7.163-16 16-16 1.135 0 2.242 0.118 3.311 0.343l-0.104-0.018c1.334 0.258 2.869 0.406 4.438 0.406 13.313 0 24.141-10.641 24.442-23.882l0.001-0.028c0-0.001 0-0.003 0-0.005 0-11.556-8.167-21.204-19.044-23.488l-0.156-0.027c-0.728-0.154-1.328-0.32-1.915-0.516l0.123 0.036h-107.008c-0.083-0.001-0.182-0.001-0.28-0.001-17.674 0-32.001 14.327-32.001 32.001 0 17.575 14.168 31.842 31.706 32h0.015zM128 464h112c0.008 0 0.017 0 0.026 0 2.959 0 5.717 0.865 8.033 2.355l-0.059-0.035c23.339 7.106 40.027 28.441 40.027 53.674 0 28.79-21.726 52.506-49.677 55.647l-0.255 0.023c-7.181 27.981-32.178 48.331-61.927 48.331-23.71 0-44.402-12.926-55.412-32.116l-0.165-0.311c-32.007-3.846-56.576-30.838-56.576-63.568 0-35.341 28.645-63.991 63.984-64h0.001zM127.44 560l2.368-0.256c0.314-0.022 0.68-0.034 1.050-0.034 6.952 0 12.868 4.433 15.075 10.627l0.035 0.112c4.412 12.66 16.247 21.581 30.165 21.581 17.405 0 31.551-13.951 31.867-31.28v-0.030c0-0.384 0-0.784-0.080-1.088-0.004-0.135-0.006-0.293-0.006-0.453 0-8.837 7.163-16 16-16 1.135 0 2.242 0.118 3.311 0.343l-0.104-0.018c1.334 0.258 2.869 0.406 4.438 0.406 13.313 0 24.141-10.641 24.442-23.882l0.001-0.028c0-0.001 0-0.003 0-0.005 0-11.556-8.167-21.204-19.044-23.488l-0.156-0.027c-0.728-0.154-1.328-0.32-1.915-0.516l0.123 0.036h-107.008c-0.083-0.001-0.182-0.001-0.28-0.001-17.674 0-32.001 14.327-32.001 32.001 0 17.575 14.168 31.842 31.706 32h0.015z" />
<glyph unicode="&#xe910;" glyph-name="buildings" d="M656 144h32v-128h-32zM720 144h32v-128h-32zM880 384.16v335.84h-32v162.896l-32-5.328v34.432h-32v-39.776l-32-5.328v77.104h-32v-82.448l-32-5.328v55.776h-32v-61.104l-32-5.328v-125.568h-32v-160h-128v224h-64v96h-32v64h-160v-64h-32v-96h-64v-298.96c-33.152-15.824-57.296-47.392-62.72-85.040h-33.28v-448h992v450.448zM656 818.448l160 26.672v-125.12h-160zM624 688h224v-308.416l-96-13.712v-83.216l-48 64-48-64v277.344h-32zM624 496h-224v32h224zM624 176h160v-192h-160zM640 208l64 85.328 64-85.328zM240 912h96v-32h-96zM208 848h160v-64h-160zM144 752h288v-192h-64v-74.96c-14.576 6.944-30.816 10.96-48 10.96h-160c-5.44 0-10.752-0.528-16-1.28zM160 464h160c38.624 0 70.944-27.536 78.384-64h-316.768c7.44 36.464 39.76 64 78.384 64zM432 368v-32h-384v32zM368 80h-64v64h64zM272 80h-64v64h64zM272 48v-64h-64v64zM304 48h64v-64h-64zM368 176h-64v64h64zM272 176h-64v64h64zM176 176h-64v64h64zM112 144h64v-64h-64zM112 48h64v-64h-64zM400-16v288h-320v-288h-32v320h384v-320zM430.72 400c-3.456 24.032-14.496 45.648-30.72 62.224v1.776h224v-224l-32-42.672v-213.328h-128v416zM976-16h-160v213.328l-32 42.672v98.128l192 27.424zM496 432h32v-32h-32zM496 48h32v-32h-32zM496 368h32v-32h-32zM496 112h32v-32h-32zM496 240h32v-32h-32zM496 304h32v-32h-32zM496 176h32v-32h-32zM560 304h32v-32h-32zM560 368h32v-32h-32zM560 432h32v-32h-32zM912 48h32v-32h-32zM912 176h32v-32h-32zM912 112h32v-32h-32zM912 240h32v-32h-32zM912 304h32v-32h-32zM848 112h32v-32h-32zM848 304h32v-32h-32zM848 176h32v-32h-32zM848 48h32v-32h-32zM848 240h32v-32h-32zM368 720h32v-32h-32zM304 720h32v-32h-32zM176 720h32v-32h-32zM240 720h32v-32h-32zM240 656h32v-32h-32zM368 656h32v-32h-32zM176 656h32v-32h-32zM304 656h32v-32h-32zM176 592h32v-32h-32zM240 592h32v-32h-32zM304 592h32v-32h-32zM784 656h32v-32h-32zM720 656h32v-32h-32zM656 656h32v-32h-32zM784 592h32v-32h-32zM656 592h32v-32h-32zM720 592h32v-32h-32zM720 400h32v-32h-32zM720 464h32v-32h-32zM720 528h32v-32h-32zM784 464h32v-32h-32zM784 528h32v-32h-32z" />
<glyph unicode="&#xe911;" glyph-name="confirmation" d="M734.165 584.832c-16.64 16.661-43.691 16.661-60.331 0l-183.168-183.147-76.501 76.48c-16.64 16.661-43.691 16.661-60.331 0-16.661-16.661-16.661-43.669 0-60.331l106.667-106.667c8.32-8.341 19.243-12.501 30.165-12.501s21.845 4.16 30.165 12.501l213.333 213.333c16.661 16.661 16.661 43.669 0 60.331zM981.333 490.667c-23.552 0-42.667-19.115-42.667-42.667 0-235.264-191.403-426.667-426.667-426.667s-426.667 191.403-426.667 426.667 191.403 426.667 426.667 426.667c114.539 0 222.059-44.757 302.784-126.037 16.576-16.747 43.605-16.832 60.331-0.213 16.725 16.597 16.811 43.605 0.213 60.331-96.853 97.536-225.899 151.253-363.328 151.253-282.325 0-512-229.675-512-512s229.675-512 512-512 512 229.675 512 512c0 23.552-19.115 42.667-42.667 42.667z" />
<glyph unicode="&#xe912;" glyph-name="home-1" d="M912 550.56l21.040-14.288c2.672-1.808 5.792-2.768 8.992-2.768 0.992 0 2.016 0.096 3.008 0.288 4.16 0.8 7.84 3.216 10.224 6.736l35.936 52.976c4.976 7.312 3.056 17.264-4.256 22.224l-465.952 316.176c-5.44 3.68-12.528 3.68-17.968 0l-465.984-316.192c-7.312-4.96-9.216-14.912-4.256-22.224l35.936-52.976c2.368-3.52 6.064-5.936 10.224-6.736 4.192-0.8 8.496 0.112 12 2.48l21.056 14.304v-160.080c-9.376-4.096-17.040-11.664-21.056-21.616-26.896-66.496-58.944-153.888-58.944-192.864 0-57.44 33.44-102.048 80-110.448v-65.552h-80v-32h960v32h-80zM86.224 571.728l-17.968 26.512 443.744 301.104 443.744-301.104-17.968-26.496-416.784 282.816c-2.72 1.84-5.856 2.768-8.992 2.768s-6.272-0.928-8.992-2.768zM64 176c0 26 20.624 91.92 56.592 180.864 1.84 4.528 5.792 5.008 7.408 5.008s5.568-0.48 7.408-5.008c35.968-88.944 56.592-154.864 56.592-180.864 0-46.352-26.928-80-64-80s-64 33.648-64 80zM144 65.552c46.56 8.4 80 53.008 80 110.448 0 38.976-32.048 126.368-58.944 192.864-4.016 9.952-11.68 17.52-21.056 21.616v181.792l368 249.712 368-249.712v-311.44l-2.688 4.032c-5.936 8.912-20.688 8.912-26.624 0l-32-48c-1.744-2.608-2.688-5.712-2.688-8.864v-32h-32v32c0 3.152-0.944 6.256-2.688 8.88l-32 48c-5.936 8.912-20.688 8.912-26.624 0l-32-48c-1.744-2.624-2.688-5.728-2.688-8.88v-32h-32v32c0 3.152-0.944 6.256-2.688 8.88l-32 48c-5.936 8.912-20.688 8.912-26.624 0l-32-48c-1.744-2.624-2.688-5.728-2.688-8.88v-208h-96v304c0 8.848-7.152 16-16 16h-176c-8.848 0-16-7.152-16-16v-304h-112zM624 0h-32v203.152l16 24 16-24zM656 144h32v-32h-32zM656 80h32v-80h-32zM752 0h-32v203.152l16 24 16-24zM784 144h32v-32h-32zM784 80h32v-80h-32zM432 0h-144v288h144zM848 0v203.152l16 24 16-24v-203.152zM464 432h96c35.296 0 64 28.704 64 64v96c0 35.296-28.704 64-64 64h-96c-35.296 0-64-28.704-64-64v-96c0-35.296 28.704-64 64-64zM432 496v32h64v-64h-32c-17.648 0-32 14.352-32 32zM560 464h-32v64h64v-32c0-17.648-14.352-32-32-32zM592 592v-32h-64v64h32c17.648 0 32-14.352 32-32zM464 624h32v-64h-64v32c0 17.648 14.352 32 32 32zM368 160h32v-32h-32z" />
<glyph unicode="&#xe913;" glyph-name="cityscape" d="M1008.792 187.908h-100.204v124.264c0 8.398-6.81 15.208-15.208 15.208s-15.208-6.81-15.208-15.208v-344.166h-261.002v451.808h261.002v-36.666c0-8.398 6.81-15.208 15.208-15.208s15.208 6.81 15.208 15.208v51.872c0 8.398-6.81 15.208-15.208 15.208h-207.788v492.972c0 8.398-6.81 15.208-15.208 15.208h-316.304c-8.398 0-15.208-6.81-15.208-15.208v-227.504h-196.722c-8.398 0-15.208-6.81-15.208-15.208v-373.908h-111.734c-8.398 0-15.208-6.81-15.208-15.208v-358.572c0-8.398 6.81-15.208 15.208-15.208h443.25c0.014 0 0.026 0.002 0.038 0.002h434.846c0.012 0 0.026-0.002 0.038-0.002h115.412c8.398 0 15.208 6.81 15.208 15.208v219.9c0 8.398-6.81 15.208-15.208 15.208zM126.942-31.992h-96.526v328.156h96.526v-328.156zM443.25-31.992l-285.892-0.002v84.098h285.892v-84.096zM443.25 184.916h-137.062c-8.398 0-15.208-6.81-15.208-15.208s6.81-15.208 15.208-15.208h137.062v-71.98h-285.892v71.98h77.858c8.398 0 15.208 6.81 15.208 15.208s-6.81 15.208-15.208 15.208h-77.858v71.98h285.892v-71.98zM443.25 287.308h-285.892v71.982h285.892v-71.982zM443.25 389.704h-285.892v71.978h285.892v-71.978zM443.25 492.098h-285.892v71.98h285.892v-71.98zM443.25 594.494h-285.892v90.788h285.892v-90.788zM586.754 435.018v-467.016h-113.088v732.488c0 8.398-6.808 15.208-15.208 15.208h-20.734v30.414c0 8.398-6.808 15.208-15.208 15.208s-15.208-6.81-15.208-15.208v-30.414h-38.020v212.294h285.886v-477.766h-53.214c-8.398 0-15.206-6.808-15.206-15.208zM993.584-31.992h-84.994v189.486h84.994v-189.486zM601.962 628.914c-8.4 0-15.208-6.81-15.208-15.208v-45.622c0-8.4 6.81-15.208 15.208-15.208 8.4 0 15.208 6.81 15.208 15.208v45.622c0 8.398-6.808 15.208-15.208 15.208zM512.24 628.914c-8.4 0-15.208-6.81-15.208-15.208v-45.622c0-8.4 6.81-15.208 15.208-15.208 8.4 0 15.208 6.81 15.208 15.208v45.622c0 8.398-6.808 15.208-15.208 15.208zM601.962 761.32c-8.4 0-15.208-6.81-15.208-15.208v-45.622c0-8.398 6.81-15.208 15.208-15.208 8.4 0 15.208 6.81 15.208 15.208v45.622c0 8.398-6.808 15.208-15.208 15.208zM512.24 761.32c-8.4 0-15.208-6.81-15.208-15.208v-45.622c0-8.398 6.81-15.208 15.208-15.208 8.4 0 15.208 6.81 15.208 15.208v45.622c0 8.398-6.808 15.208-15.208 15.208zM422.516 893.726c-8.4 0-15.208-6.81-15.208-15.208v-45.622c0-8.398 6.81-15.208 15.208-15.208 8.4 0 15.208 6.81 15.208 15.208v45.622c0 8.398-6.806 15.208-15.208 15.208zM601.962 893.726c-8.4 0-15.208-6.81-15.208-15.208v-45.622c0-8.398 6.81-15.208 15.208-15.208 8.4 0 15.208 6.81 15.208 15.208v45.622c0 8.398-6.808 15.208-15.208 15.208zM512.24 893.726c-8.4 0-15.208-6.81-15.208-15.208v-45.622c0-8.398 6.81-15.208 15.208-15.208 8.4 0 15.208 6.81 15.208 15.208v45.622c0 8.398-6.808 15.208-15.208 15.208zM593.836 493.48c-6.154-3.872-8.744-11.928-5.914-18.652 2.43-5.736 8.146-9.532 14.404-9.378 6.376 0.156 12.050 4.374 14.068 10.422 4.434 13.302-10.778 25.020-22.558 17.608zM512.24 495.85c-8.4 0-15.208-6.81-15.208-15.208v-45.622c0-8.4 6.81-15.208 15.208-15.208 8.4 0 15.208 6.81 15.208 15.208v45.622c0 8.4-6.808 15.208-15.208 15.208zM512.24 96.658c-8.4 0-15.208-6.81-15.208-15.208v-45.622c0-8.398 6.81-15.208 15.208-15.208 8.4 0 15.208 6.81 15.208 15.208v45.622c0 8.4-6.808 15.208-15.208 15.208zM512.24 229.722c-8.4 0-15.208-6.81-15.208-15.208v-45.622c0-8.398 6.81-15.208 15.208-15.208 8.4 0 15.208 6.81 15.208 15.208v45.622c0 8.398-6.808 15.208-15.208 15.208zM512.24 362.784c-8.4 0-15.208-6.81-15.208-15.208v-45.622c0-8.398 6.81-15.208 15.208-15.208 8.4 0 15.208 6.81 15.208 15.208v45.622c0 8.4-6.808 15.208-15.208 15.208zM831.794 101.29h-168.246c-8.4 0-15.208-6.81-15.208-15.208s6.808-15.208 15.208-15.208h168.246c8.4 0 15.208 6.81 15.208 15.208s-6.806 15.208-15.208 15.208zM831.794 29.402h-168.246c-8.4 0-15.208-6.81-15.208-15.208s6.808-15.208 15.208-15.208h168.246c8.4 0 15.208 6.81 15.208 15.208 0 8.4-6.806 15.208-15.208 15.208zM831.794 173.174h-168.246c-8.4 0-15.208-6.81-15.208-15.208s6.808-15.208 15.208-15.208h168.246c8.4 0 15.208 6.81 15.208 15.208s-6.806 15.208-15.208 15.208zM831.794 388.834h-168.246c-8.4 0-15.208-6.81-15.208-15.208s6.808-15.208 15.208-15.208h168.246c8.4 0 15.208 6.81 15.208 15.208s-6.806 15.208-15.208 15.208zM831.794 245.062h-168.246c-8.4 0-15.208-6.81-15.208-15.208s6.808-15.208 15.208-15.208h168.246c8.4 0 15.208 6.81 15.208 15.208s-6.806 15.208-15.208 15.208zM831.794 316.946h-168.246c-8.4 0-15.208-6.81-15.208-15.208s6.808-15.208 15.208-15.208h168.246c8.4 0 15.208 6.81 15.208 15.208s-6.806 15.208-15.208 15.208zM78.678 271.992c-8.4 0-15.208-6.81-15.208-15.208v-39.538c0-8.398 6.808-15.208 15.208-15.208s15.208 6.81 15.208 15.208v39.538c0 8.398-6.81 15.208-15.208 15.208zM78.678 167.062c-8.4 0-15.208-6.81-15.208-15.208v-39.538c0-8.398 6.808-15.208 15.208-15.208s15.208 6.81 15.208 15.208v39.538c0 8.4-6.81 15.208-15.208 15.208zM78.678 62.132c-8.4 0-15.208-6.81-15.208-15.208v-39.538c0-8.398 6.808-15.208 15.208-15.208s15.208 6.81 15.208 15.208v39.538c0 8.4-6.81 15.208-15.208 15.208zM951.088 120.998c-8.4 0-15.208-6.81-15.208-15.208v-43.040c0-8.398 6.808-15.208 15.208-15.208s15.208 6.81 15.208 15.208v43.040c0 8.398-6.808 15.208-15.208 15.208zM906.502 665.414h-185.526c-8.4 0-15.208-6.81-15.208-15.208s6.808-15.208 15.208-15.208h185.526c8.4 0 15.208 6.81 15.208 15.208s-6.808 15.208-15.208 15.208zM964.29 601.544h-133.824c-8.4 0-15.208-6.81-15.208-15.208s6.808-15.208 15.208-15.208h133.824c8.4 0 15.208 6.81 15.208 15.208s-6.808 15.208-15.208 15.208zM273.882 844.858h-133.824c-8.4 0-15.208-6.81-15.208-15.208s6.81-15.208 15.208-15.208h133.824c8.4 0 15.208 6.81 15.208 15.208s-6.806 15.208-15.208 15.208zM197.846 794.168h-133.822c-8.4 0-15.208-6.81-15.208-15.208s6.81-15.208 15.208-15.208h133.824c8.4 0 15.208 6.81 15.208 15.208s-6.808 15.208-15.21 15.208z" />
<glyph unicode="&#xe914;" glyph-name="checked" d="M941.602 838.588l-616.378-616.378-242.825 242.825-82.398-82.398 325.223-325.223 698.777 698.777z" />
<glyph unicode="&#xe915;" glyph-name="grid" d="M433.232 960h-393.848c-21.752 0-39.385-17.632-39.385-39.385v-393.848c0-21.752 17.632-39.385 39.385-39.385h393.848c21.752 0 39.385 17.632 39.385 39.385v393.848c0 21.752-17.632 39.385-39.385 39.385zM984.615 960h-393.848c-21.752 0-39.385-17.632-39.385-39.385v-393.848c0-21.752 17.632-39.385 39.385-39.385h393.848c21.752 0 39.385 17.632 39.385 39.385v393.848c0 21.752-17.632 39.385-39.385 39.385zM433.232 408.613h-393.848c-21.752 0-39.385-17.632-39.385-39.385v-393.848c0-21.752 17.632-39.385 39.385-39.385h393.848c21.752 0 39.385 17.632 39.385 39.385v393.848c0 21.752-17.632 39.385-39.385 39.385zM984.615 408.613h-393.848c-21.752 0-39.385-17.632-39.385-39.385v-393.848c0-21.752 17.632-39.385 39.385-39.385h393.848c21.752 0 39.385 17.632 39.385 39.385v393.848c0 21.752-17.632 39.385-39.385 39.385z" />
<glyph unicode="&#xe916;" glyph-name="list" d="M0 856h226.586v-226.586h-226.586zM298.594 856h725.406v-226.586h-725.406zM0 561.984h226.586v-226.586h-226.586zM298.594 561.984h725.406v-226.586h-725.406zM0 267.977h226.586v-226.594h-226.586zM298.594 267.977h725.406v-226.594h-725.406z" />
<glyph unicode="&#xe917;" glyph-name="extractor-hood" d="M200.036 560h623.924c29.672 0 49.066 31.298 35.774 57.888l-79.99 160c-6.776 13.552-20.624 22.112-35.774 22.112h-111.986v120c0 22.092-17.906 40-39.996 40h-159.98c-22.090 0-39.996-17.908-39.996-40v-120h-111.986c-15.15 0-28.998-8.56-35.774-22.112l-79.99-160c-13.268-26.542 6.048-57.888 35.774-57.888zM472.002 880h79.99v-80h-79.99zM304.744 720h414.508l39.996-80h-494.498zM240 290.664c0-56.962 60-65.924 60-157.336 0-91.426-60-100.346-60-157.328 0-22.092-17.908-40-40-40s-40 17.908-40 40c0 91.426 60 100.346 60 157.328 0 56.962-60 65.924-60 157.336 0 91.37 60 100.42 60 157.336 0 22.092 17.908 40 40 40s40-17.908 40-40c0-91.37-60-100.42-60-157.336zM864 133.328c0-91.426-60-100.346-60-157.328 0-22.092-17.908-40-40-40s-40 17.908-40 40c0 91.426 60 100.346 60 157.328 0 56.962-60 65.924-60 157.336 0 91.37 60 100.42 60 157.336 0 22.092 17.908 40 40 40s40-17.908 40-40c0-91.37-60-100.42-60-157.336 0-56.962 60-65.924 60-157.336zM521.998 290.664c0-56.962 60-65.924 60-157.336 0-91.426-60-100.346-60-157.328 0-22.092-17.908-40-40-40s-40 17.908-40 40c0 91.426 60 100.346 60 157.328 0 56.962-60 65.924-60 157.336 0 91.37 60 100.42 60 157.336 0 22.092 17.908 40 40 40s40-17.908 40-40c0-91.37-60-100.42-60-157.336z" />
<glyph unicode="&#xe918;" glyph-name="pet-house" d="M1002.122 635.656l-471.992 240c-11.392 5.792-24.866 5.792-36.26 0l-471.992-240c-19.692-10.014-27.538-34.094-17.526-53.786s34.092-27.534 53.784-17.528l44.498 22.626 57.6-535.25c2.186-20.318 19.336-35.72 39.77-35.72h623.99c20.434 0 37.584 15.402 39.77 35.72l57.6 535.25 44.498-22.626c19.692-10.012 43.774-2.162 53.784 17.528 10.014 19.692 2.168 43.772-17.524 53.786zM636.984 96h-249.968v235.626c0 68.918 56.068 124.986 124.984 124.986s124.984-56.068 124.984-124.986zM788.068 96h-71.086v235.626c0 113.030-91.954 204.986-204.982 204.986s-204.982-91.958-204.982-204.986v-235.626h-71.086l-57.010 529.76 333.078 169.366 333.078-169.366z" />
<glyph unicode="&#xe919;" glyph-name="shelves" d="M984 256h-260.67c40.236 63.268 62.67 137.646 62.67 215.334v56.666c0 22.092-17.908 40-40 40h-194v78.908c133.298 19.438 236 134.488 236 273.092 0 22.092-17.908 40-40 40-99.882 0-187.542-53.332-236-133.016-48.458 79.684-136.118 133.016-236 133.016-22.092 0-40-17.908-40-40 0-138.604 102.702-253.654 236-273.092v-78.908h-194c-22.092 0-40-17.908-40-40v-56.666c0-77.95 22.614-152.352 62.67-215.334h-260.67c-22.092 0-40-17.908-40-40v-160c0-22.092 17.908-40 40-40h120v-40c0-22.092 17.908-40 40-40s40 17.908 40 40v40h544v-40c0-22.092 17.908-40 40-40s40 17.908 40 40v40h120c22.092 0 40 17.908 40 40v160c0 22.092-17.908 40-40 40zM702.722 874.722c-17.042-71.778-73.668-128.404-145.446-145.446 17.042 71.778 73.67 128.406 145.446 145.446zM321.278 874.722c71.778-17.042 128.404-73.668 145.446-145.446-71.778 17.042-128.406 73.67-145.446 145.446zM318 488h388v-16.666c0-80.356-29.318-156.206-82.894-215.334h-222.214c-53.574 59.128-82.892 134.98-82.892 215.334zM944 96h-864v80h864z" />
<glyph unicode="&#xe91a;" glyph-name="fireplace" d="M984 800h-215.278l-68.944 137.888c-6.778 13.552-20.626 22.112-35.778 22.112h-304c-15.152 0-29-8.56-35.778-22.112l-68.944-137.888h-215.278c-22.092 0-40-17.908-40-40v-160c0-22.092 17.908-40 40-40h40v-584c0-22.092 17.908-40 40-40h784c22.092 0 40 17.908 40 40v584h40c22.092 0 40 17.908 40 40v160c0 22.092-17.908 40-40 40zM384.722 880h254.556l40-80h-334.556zM704 16h-384v192c0 105.87 86.13 192 192 192s192-86.13 192-192zM864 16h-80v192c0 149.98-122.018 272-272 272s-272-122.020-272-272v-192h-80v544h704zM944 640c-47.638 0-813.648 0-864 0v80h864z" />
<glyph unicode="&#xe91b;" glyph-name="desk" d="M984 880h-944c-22.092 0-40-17.908-40-40v-784c0-22.092 17.908-40 40-40h160c22.092 0 40 17.908 40 40v120h544v-120c0-22.092 17.908-40 40-40h160c22.092 0 40 17.908 40 40 0 22.008 0 765.864 0 784 0 22.092-17.908 40-40 40zM160 96h-80v544h80zM784 256h-544v384h544zM944 96h-80v544h80zM944 720c-43.74 0-825.126 0-864 0v80h864z" />
<glyph unicode="&#xe91c;" glyph-name="staircase" d="M984 851h-236c-22.092 0-40-17.908-40-40v-148.5h-196c-22.092 0-40-17.908-40-40v-148.8h-196c-22.092 0-40-17.908-40-40v-148.8h-196c-22.092 0-40-17.908-40-40v-159.9c0-22.092 17.908-40 40-40h944c22.092 0 40 17.908 40 40v726c0 22.092-17.908 40-40 40zM944 125h-864v79.9h196c22.092 0 40 17.91 40 40v148.8h196c22.092 0 40 17.91 40 40v148.8h196c22.092 0 40 17.908 40 40v148.5h156z" />
<glyph unicode="&#xe91d;" glyph-name="window" d="M984 96h-40v744c0 22.092-17.908 40-40 40h-784c-22.092 0-40-17.908-40-40v-744h-40c-22.092 0-40-17.908-40-40s17.908-40 40-40h944c22.092 0 40 17.908 40 40s-17.908 40-40 40zM472 96h-312v312h312zM472 488h-312v312h312zM864 96h-312v312h312zM864 488h-312v312h312z" />
<glyph unicode="&#xe91e;" glyph-name="tiles" d="M984 960c-20.024 0-896.838 0-944 0-22.092 0-40-17.908-40-40v-944c0-22.092 17.908-40 40-40h944c22.092 0 40 17.908 40 40 0 26.012 0 902.964 0 944 0 22.092-17.908 40-40 40zM80 880h234.666v-234.666h-234.666zM314.666 16h-234.666v234.666h234.666zM80 330.666v234.668h549.334v-234.668c-29.452 0-519.45 0-549.334 0zM944 16h-549.334v234.666h549.334zM944 330.666h-234.666v234.668h234.666zM944 645.334c-29.45 0-519.448 0-549.334 0v234.666h549.334z" />
</font>
</defs>
</svg>
